Kdenlive crash when I click a MP4 file on project bin (work on other computer and on flatpak version)

Hello !

I have a problem with Kdenlive when I select a project. I explain.

Problem :

When I launch kdenlive and open my project, its work. I get list of files (videos, titles, pics, audio …). I can select several file in bin. BUT : If I select a mp4 file in project, KDEnlive crash with this message :

[mov,mp4,m4a,3gp,3g2,mj2 @ 0x7f1838c8eb40] Could not find codec parameters for stream 1 (Audio: aac (mp4a / 0x6134706D), 48000 Hz, 2 channels, 159 kb/s): unspecified sample format
Consider increasing the value for the ‘analyzeduration’ (0) and ‘probesize’ (5000000) options

I don’t know if this message is the origin of crash.

Things I have try :

Before post on this forum, I have try some task

  • Make a « zypper dup » for get last available package version : Same problem.
  • Reinstall packman repository (manually, and via « opi codecs » command) : Same problem.
  • Update full KDE to Unstable version : Same problem.
  • Try Flatpak version : Work but very slow.

I can play without problem videos with vlc.

I have already try to ask to KDEnlive telegram group, but problem is not « kdenlive related » but « package related. ».

Do you have any idea ?

Some informations :

Package :
Dépôt : Dépôt principal (OSS)
Nom : kdenlive
Version : 23.04.1-1.1
Architecture : x86_64
Fabricant : openSUSE
Installé : Oui
État : à jour

*ffprobe *

Résumé

ffprobe version 6.0 Copyright (c) 2007-2023 the FFmpeg developers
built with gcc 13 (SUSE Linux)
configuration: --prefix=/usr --libdir=/usr/lib64 --shlibdir=/usr/lib64 --incdir=/usr/include/ffmpeg --extra-cflags=‘-O2 -Wall -U_FORTIFY_SOURCE -D_FORTIFY_SOURCE=3 -fstack-protector-strong -funwind-tables -fasynchronous-unwind-tables -fstack-clash-protection -Werror=return-type -flto=auto -ffat-lto-objects -g’ --optflags=‘-O2 -Wall -U_FORTIFY_SOURCE -D_FORTIFY_SOURCE=3 -fstack-protector-strong -funwind-tables -fasynchronous-unwind-tables -fstack-clash-protection -Werror=return-type -flto=auto -ffat-lto-objects -g’ --disable-htmlpages --enable-pic --disable-stripping --enable-shared --disable-static --enable-gpl --enable-version3 --disable-openssl --enable-gnutls --enable-ladspa --enable-libshaderc --enable-vulkan --enable-libplacebo --enable-libaom --enable-libass --enable-libbluray --enable-libbs2b --enable-libcdio --enable-libcodec2 --enable-libdav1d --enable-libdc1394 --enable-libdrm --enable-libfontconfig --enable-libfreetype --enable-libfribidi --enable-libgsm --enable-libjack --enable-libjxl --enable-librist --enable-libmp3lame --enable-libmysofa --enable-libopenjpeg --enable-libopenmpt --enable-libopenh264-dlopen --enable-libopus --enable-libpulse --enable-librav1e --enable-librubberband --enable-libsvtav1 --enable-libsoxr --enable-libspeex --enable-libssh --enable-libsrt --enable-libtheora --enable-libtwolame --enable-libvidstab --enable-libvmaf --enable-libvorbis --enable-libvpx --enable-libwebp --enable-libxml2 --enable-libzimg --enable-libzmq --enable-libzvbi --enable-lto --enable-lv2 --enable-libmfx --enable-vaapi --enable-vdpau --enable-version3 --enable-libfdk-aac-dlopen --enable-nonfree --enable-libvo-amrwbenc --enable-libx264 --enable-libx265 --enable-libxvid
libavutil 58. 2.100 / 58. 2.100
libavcodec 60. 3.100 / 60. 3.100
libavformat 60. 3.100 / 60. 3.100
libavdevice 60. 1.100 / 60. 1.100
libavfilter 9. 3.100 / 9. 3.100
libswscale 7. 1.100 / 7. 1.100
libswresample 4. 10.100 / 4. 10.100
libpostproc 57. 1.100 / 57. 1.100
Input #0, mov,mp4,m4a,3gp,3g2,mj2, from ‘20230426 - Frôle un cycliste.mp4’:
Metadata:
major_brand : isom
minor_version : 512
compatible_brands: isomiso2avc1mp41
encoder : Lavf59.27.100
Duration: 00:00:09.71, start: 0.000000, bitrate: 13996 kb/s
Stream #0:00x1: Video: h264 (High) (avc1 / 0x31637661), yuv420p(tv, smpte170m, progressive), 1920x1080 [SAR 1:1 DAR 16:9], 13841 kb/s, 59.94 fps, 59.94 tbr, 60k tbn (default)
Metadata:
handler_name : VideoHandler
vendor_id : [0][0][0][0]
Stream #0:10x2: Audio: aac (LC) (mp4a / 0x6134706D), 48000 Hz, stereo, fltp, 160 kb/s (default)
Metadata:
handler_name : SoundHandler
vendor_id : [0][0][0][0]

If you have any idea, I have try lot of things

If you want more information : I have put full terminal output and full debug output on my Nextcloud Instance here :