Hi

I have input video file in avi container that is:

Input #0, avi, from 'end_of_an_era.avi':
Metadata:
encoder : VirtualDubMod 1.5.4.1 (build 2178/release)
IAS1 : English
Duration: 01:43:03.96, start: 0.000000, bitrate: 952 kb/s
Stream #0.0: Video: mpeg4, yuv420p, 480x272 [PAR 1:1 DAR 30:17], 25 tbr, 25 tbn, 25 tbc
Stream #0.1: Audio: mp3, 48000 Hz, stereo, s16, 120 kb/s


DeVeDe states that its invalid video file and won't make ISO of it.
No matter to what I convert it in FFMPEG, it still says the same.
(tried MP4, MPG and FLV containers, mixing xvid, h264 and standard DVD codecs)

If it is a DeVeDe problem, is there any alternative that do the same job?
(I wish to make a DVD from video file)