Page 1 of 3 123 LastLast
Results 1 to 10 of 25

Thread: mobile media converter problem

  1. #1
    Join Date
    Oct 2011
    Location
    Chittagong,Bangladesh
    Posts
    19

    Default mobile media converter problem

    Hi this is sadi.I've got problem with mobile media converter in ma opensuse 12.1(KDE).I've Installed all the essential codecs through this:
    sudo zypper in libxine1-codecs k3b-codecs ffmpeg lame libdvdcss w32codec-all
    and also using this: 13. Multimedia Codecs - Install Support For MP3, DVD, WMA, WMV, MOV etc.
    Now ma mobile media converter can convert all files except .3gp file format. It gives an error like this:
    >>Command executed:
    "/usr/lib/mobilemediaconverter/ffmpeg" -y -i "/local/AVSEQ16.DAT" -f 3gp -vcodec h263 -s qcif -r 15 -b 100k -acodec libfaac -ac 2 -ar 32000 -ab 64k -map_meta_data "/local/AVSEQ16.3gp":"/local/AVSEQ16.DAT" "/local/AVSEQ16.3gp"
    >> Result:
    ffmpeg version 0.8.6, Copyright (c) 2000-2011 the FFmpeg developers
    built on Nov 6 2011 13:01:08 with gcc 4.6.2
    configuration: --shlibdir=/usr/lib --prefix=/usr --mandir=/usr/share/man --libdir=/usr/lib --enable-shared --disable-static --enable-libmp3lame --enable-libvorbis --enable-libtheora --enable-libspeex --enable-libxvid --enable-postproc --enable-gpl --enable-x11grab --extra-cflags='-fomit-frame-pointer -fmessage-length=0 -O2 -Wall -D_FORTIFY_SOURCE=2 -fstack-protector -funwind-tables -fasynchronous-unwind-tables -g -D_LARGEFILE_SOURCE -D_FILE_OFFSET_BITS=64 -I/usr/include/gsm' --enable-debug --disable-stripping --enable-libgsm --enable-libschroedinger --enable-libdirac --enable-avfilter --enable-libvpx --enable-version3 --enable-libopencore-amrnb --enable-libopencore-amrwb --enable-libx264 --enable-libdc1394 --enable-pthreads --enable-librtmp
    libavutil 51. 9. 1 / 51. 9. 1
    [mpeg @ 0x807ab40] max_analyze_duration 5000000 reached at 5005000
    Input #0, mpeg, from '/local/AVSEQ16.DAT':
    Duration: 00:02:07.92, start: 0.300300, bitrate: 1440 kb/s
    Stream #0.0[0x1e0]: Video: mpeg1video, yuv420p, 352x240 [PAR 200:219 DAR 880:657], 1100 kb/s, 29.97 fps, 29.97 tbr, 90k tbn, 29.97 tbc
    Stream #0.1[0x1c0]: Audio: mp2, 44100 Hz, stereo, s16, 224 kb/s
    -map_meta_data is deprecated and will be removed soon. Use -map_metadata instead.
    Unknown encoder 'libfaac'

    Please help me as early as possible. Thanks.

  2. #2
    Join Date
    Jun 2008
    Location
    The English Lake District. UK - GMT/BST
    Posts
    37,115
    Blog Entries
    16

    Default Re: mobile media converter problem

    My openSUSE 13.1 KDE Box
    My Articles
    Was I any help? If yes: Click the star below

  3. #3
    Join Date
    Oct 2011
    Location
    Chittagong,Bangladesh
    Posts
    19

    Default Re: mobile media converter problem

    thanks.Caf4926.But this mathod didn't work

  4. #4
    Join Date
    Jun 2008
    Location
    The English Lake District. UK - GMT/BST
    Posts
    37,115
    Blog Entries
    16

    Default Re: mobile media converter problem

    Can you please explain what you want to convert to what
    My openSUSE 13.1 KDE Box
    My Articles
    Was I any help? If yes: Click the star below

  5. #5
    Join Date
    Oct 2011
    Location
    Chittagong,Bangladesh
    Posts
    19

    Default Re: mobile media converter problem

    mobile media converter use ffmpeg to convert files.I've to convert .flv to .3gp for ma mobile device.I can convert .flv to .mpeg or in .avi or in .wmv but can convert it into .3gp or in .mp4.If I use .flv or any other to .3gp than it gives an error like this:
    >>Command executed:
    "/usr/lib/mobilemediaconverter/ffmpeg" -y -i "/local/AVSEQ16.DAT" -f 3gp -vcodec h263 -s qcif -r 15 -b 100k -acodec libfaac -ac 2 -ar 32000 -ab 64k -map_meta_data "/local/AVSEQ16.3gp":"/local/AVSEQ16.DAT" "/local/AVSEQ16.3gp"
    >> Result:
    ffmpeg version 0.8.6, Copyright (c) 2000-2011 the FFmpeg developers
    built on Nov 6 2011 13:01:08 with gcc 4.6.2
    configuration: --shlibdir=/usr/lib --prefix=/usr --mandir=/usr/share/man --libdir=/usr/lib --enable-shared --disable-static --enable-libmp3lame --enable-libvorbis --enable-libtheora --enable-libspeex --enable-libxvid --enable-postproc --enable-gpl --enable-x11grab --extra-cflags='-fomit-frame-pointer -fmessage-length=0 -O2 -Wall -D_FORTIFY_SOURCE=2 -fstack-protector -funwind-tables -fasynchronous-unwind-tables -g -D_LARGEFILE_SOURCE -D_FILE_OFFSET_BITS=64 -I/usr/include/gsm' --enable-debug --disable-stripping --enable-libgsm --enable-libschroedinger --enable-libdirac --enable-avfilter --enable-libvpx --enable-version3 --enable-libopencore-amrnb --enable-libopencore-amrwb --enable-libx264 --enable-libdc1394 --enable-pthreads --enable-librtmp
    libavutil 51. 9. 1 / 51. 9. 1
    [mpeg @ 0x807ab40] max_analyze_duration 5000000 reached at 5005000
    Input #0, mpeg, from '/local/AVSEQ16.DAT':
    Duration: 00:02:07.92, start: 0.300300, bitrate: 1440 kb/s
    Stream #0.0[0x1e0]: Video: mpeg1video, yuv420p, 352x240 [PAR 200:219 DAR 880:657], 1100 kb/s, 29.97 fps, 29.97 tbr, 90k tbn, 29.97 tbc
    Stream #0.1[0x1c0]: Audio: mp2, 44100 Hz, stereo, s16, 224 kb/s
    -map_meta_data is deprecated and will be removed soon. Use -map_metadata instead.
    Unknown encoder 'libfaac'
    Please kindly check the error log carefully it.I think I should install any how the ACC encoder.But don't know hoto fix it or what to do cause ma ffmpeg is already installed. Even I directly try with ffmpeg in commandline but have same problem n evn try through ffmpeg source compilation mathod but failled!!!

  6. #6
    Join Date
    Feb 2010
    Location
    Germany
    Posts
    4,693

    Default Re: mobile media converter problem

    Am 26.11.2011 14:36, schrieb abmsadi iiuc:
    > Unknown encoder 'libfaac'

    What does
    Code:
    rpm -qa '*faac*'
    show you? I expect an output similar to this (this is from an 11.4 system)
    Code:
    libfaac0-1.28-6.4.x86_64
    faac-1.28-6.4.x86_64
    --
    PC: oS 11.4 (dual boot 12.1) 64 bit | Intel Core i7-2600@3.40GHz | KDE
    4.6.0 | GeForce GT 420 | 16GB Ram
    Eee PC 1201n: oS 11.4 64 bit | Intel Atom 330@1.60GHz | KDE 4.7.3 |
    nVidia ION | 3GB Ram

  7. #7
    Join Date
    Jun 2008
    Location
    The English Lake District. UK - GMT/BST
    Posts
    37,115
    Blog Entries
    16

    Default Re: mobile media converter problem

    Something like:

    Code:
     ffmpeg -i inputfile.flv -vcodec copy -acodec copy -f mp4 -y outfile.mp4
    My openSUSE 13.1 KDE Box
    My Articles
    Was I any help? If yes: Click the star below

  8. #8
    Join Date
    Oct 2011
    Location
    Chittagong,Bangladesh
    Posts
    19

    Default Re: mobile media converter problem

    martin_helm it shows:
    sadi@linux-0sam:~> rpm -qa '*faac*'
    libfaac0-1.28-6.4.i586
    @ caf4926 -Thanks.It works man but still have some problems like when it convert through that mobile media converter its size compressed there but here it didn't happened and also how should I fix this problem I mean how can I fix the problem of the mobile media converter error log?? yet If the .flv to .3gp convert it would be better for me.

  9. #9
    Join Date
    Feb 2010
    Location
    Germany
    Posts
    4,693

    Default Re: mobile media converter problem

    This mobilemediaconverter seems to have its own copy of ffmpeg and
    probably it needs its own copy for the codecs.
    What if you put the libfaac.so* files into the appropriate subdirectory
    in /usr/lib/mobilemediaconverter?
    Or maybe the ffmpeg mobilemedia converter uses simply is compiled
    without libfaac support.

    --
    PC: oS 11.4 (dual boot 12.1) 64 bit | Intel Core i7-2600@3.40GHz | KDE
    4.6.0 | GeForce GT 420 | 16GB Ram
    Eee PC 1201n: oS 11.4 64 bit | Intel Atom 330@1.60GHz | KDE 4.7.3 |
    nVidia ION | 3GB Ram

  10. #10
    Join Date
    Oct 2011
    Location
    Chittagong,Bangladesh
    Posts
    19

    Default Re: mobile media converter problem

    Do u mean libfaac.c file copy it to /usr/lib/mobilemediaconverter?? I know that mobilemediaconverter use system ffmpg

Page 1 of 3 123 LastLast

Posting Permissions

  • You may not post new threads
  • You may not post replies
  • You may not post attachments
  • You may not edit your posts
  •